#TITLE:Dynamite Rave;
#SUBTITLE:(EuroMix);
#ARTIST:Naoki;
#TITLETRANSLIT:;
#SUBTITLETRANSLIT:;
#ARTISTTRANSLIT:;
#CREDIT:;
#BANNER:drave-banner.png;
#BACKGROUND:drave-bg.png;
#LYRICSPATH:;
#CDTITLE:;
#MUSIC:Drave para.mp3;
#MUSICLENGTH:87.693;
#OFFSET:-0.480;
#SAMPLESTART:25.905;
#SAMPLELENGTH:12.000;
#SELECTABLE:YES;
#BPMS:0.000=150.000;
#STOPS:;
#BGCHANGES:;
#FIRSTBEAT:16.000;

#LASTBEAT:212.000;

#SONGFILENAME:Songs/ERICth MIX 2nd Style/Drave para/ravepara.sm;

#HASMUSIC:1;

#HASBANNER:1;


//---------------dance-single - MANIAC----------------
#NOTES:
     dance-single:
     MANIAC:
     hard:
     8:
     0.572,0.635,0.182,0.194,0.171,318.000,16.000,17.000,0.000,0.000:

0000
0000
0000
0000
,
0000
0000
0000
0000
,
0000
0000
0000
0000
,
0000
0000
0000
0000
,
1000
0000
0001
0000
1000
0000
0001
1000
0000
0001
1000
0000
0001
0000
1000
0000
,
0010
0000
0100
0000
0010
0000
0100
0010
0000
0100
0010
0000
0100
0000
0010
0000
,
1000
0000
0001
0000
1000
0000
0001
1000
0000
0001
1000
0000
0001
0000
1000
0000
,
0002
0023
0230
2300
,
3001
0100
1000
0100
0001
0010
0001
0000
,
1000
0100
0001
0100
1000
0010
1000
0000
,
1000
0010
0001
0010
1000
0100
1000
0000
,
0001
1000
0001
0000
1010
0000
0101
0000
,
0100
0000
0010
0100
0000
1000
0001
1000
0010
0000
0010
0000
0100
0000
0001
0000
,
0100
0000
0010
0100
0000
1000
0001
1000
0010
0000
0010
0000
0100
0000
0001
0000
,
0100
0000
0010
0100
0000
1000
0001
1000
0010
0000
0010
0000
0100
0000
0001
0000
,
0100
0000
0010
0100
0000
1000
0001
1000
0002
0000
0000
0000
1003
0000
0000
0000
,
0100
1000
0010
0001
0010
0100
0010
0100
,
0010
1000
0010
0001
0100
0010
1000
0100
,
0001
0100
0010
0100
0001
0100
1000
0100
,
0010
0010
0010
0010
,
0010
1000
0100
1000
0010
1000
0100
0001
,
0100
0010
0100
0001
0100
1000
0001
1000
,
0010
0001
0010
0100
0010
0010
0001
0001
,
1000
1000
0100
0100
0010
0100
0010
0000
,
0220
0000
0000
0330
,
1100
0000
1100
0000
1000
0100
1000
0000
,
1000
0001
0010
0000
0010
0001
1000
0000
,
1000
0001
1000
0000
0100
0001
0010
0000
,
1000
0100
0010
0000
0010
0100
1000
0000
,
0010
0001
0010
0000
0001
0100
0010
0000
,
0010
0100
0010
0000
0010
0100
1000
0000
,
1000
0001
1000
0000
0001
1000
0001
0000
,
0001
0001
1000
0000
1000
1000
0001
0000
,
1001
0100
1001
0010
,
1000
0100
0001
0100
0010
0000
0110
0000
,
1000
0000
0010
0000
0100
0001
0000
0100
,
0000
0100
0001
1000
0100
0000
0100
0000
,
0110
1001
1001
0110
,
0010
0100
0010
1000
0000
0000
0001
0000
,
1000
1000
0010
0010
0100
0100
0001
1000
,
0002
0023
0230
0300
,
1000
0100
0010
0000
0001
0000
0001
0000
,
0000
1000
0010
0000
1000
0000
0100
0000
,
0100
1100
0001
0101
,
0010
1000
0200
0000
0000
0000
0300
0000
,
0100
0000
0010
0100
0000
1000
0001
1000
0010
0000
0010
0000
0100
0000
0001
0000
,
0100
0000
0010
0100
0000
1000
0001
1000
0010
0000
0010
0000
0100
0000
0001
0000
,
0100
0000
0010
0100
0000
1000
0001
1000
0010
0000
0010
0000
0100
0000
0001
0000
,
0100
0000
0010
0100
0000
1000
0001
1000
0002
0000
0000
0000
1003
0000
0000
0000
,
0100
0000
0100
0000
0100
0100
0100
0002
,
1000
0003
1000
0000
1000
1000
1000
0020
,
0100
0030
0100
0000
0100
0100
0100
0002
,
1000
0003
1000
0000
1010
0000
0202
0000
,
0303
0000
0000
0000;

//---------------dance-single - ANOTHER----------------
#NOTES:
     dance-single:
     ANOTHER:
     medium:
     6:
     0.373,0.391,0.205,0.023,0.000,209.000,18.000,2.000,0.000,0.000:

0000
0000
0000
0000
,
0000
0000
0000
0000
,
0000
0000
0000
0000
,
0000
0000
0000
0000
,
0001
0000
1000
0000
0001
1000
0001
0000
,
0100
0000
0010
0000
0100
0010
0100
0000
,
1000
0000
0010
0000
1000
0010
1000
0000
,
0001
0001
0002
0003
,
0010
0000
0010
0000
0100
0010
0100
0000
,
1000
0000
0001
0000
1000
0100
0010
0000
,
0001
0000
1000
0000
0010
0100
0001
0000
,
1000
0001
0011
1100
,
0010
0000
1000
0000
0100
1000
0010
0000
,
0001
0000
0100
0000
1000
0010
1000
0100
,
1000
0000
0001
0000
0010
0100
0010
0001
,
0010
0001
1000
0001
,
1001
0100
1000
0010
,
1000
0000
0100
0000
0010
0001
0010
0001
,
0100
1000
0001
0100
,
0010
0000
1000
0000
0100
0100
0100
0000
,
0100
0000
1000
0000
0010
1000
0100
0000
,
0010
0000
0001
0000
1000
0100
0001
0000
,
0100
0000
0100
0000
0010
1000
0100
0000
,
0010
0001
0100
0010
1000
0001
1000
0000
,
0002
0000
0000
0000
0000
0000
0000
0003
,
0001
0000
1000
0000
0010
1000
0100
0000
,
0001
0010
0100
0000
0001
0000
1000
0000
,
0010
1000
0100
1000
,
0001
0100
0010
0000
0010
1000
0100
0000
,
0001
0000
1000
0000
1000
0010
0001
0000
,
0001
0000
0001
0000
0001
0010
1000
0000
,
1000
0100
0010
0001
,
1000
0010
0011
1100
,
0110
0000
1001
0000
,
0110
0010
1000
0100
,
0010
0001
0010
0001
0100
1000
0000
0001
,
0000
0100
1000
0010
1000
0000
0100
0000
,
0000
0110
0110
0000
,
0001
1000
0100
0010
,
0001
0010
0100
0000
1000
0010
0100
0000
,
1001
0011
1001
0000
,
1001
0000
0000
0000
,
0000
0000
0000
0000
,
0110
0000
0000
0000
,
0000
0000
0000
0000
,
1001
0000
0100
1000
,
0010
0000
0010
0000
0001
1000
0100
0000
,
0010
0001
0100
1000
,
0010
0000
0100
0000
0100
1000
0010
0000
,
0001
0000
0001
0000
0010
1000
0001
0000
,
1000
0000
0100
0000
0010
0001
1000
0000
,
0001
0000
0100
0000
0010
0100
1000
0000
,
0001
0100
0011
1100;

//---------------dance-single - BASIC----------------
#NOTES:
     dance-single:
     BASIC:
     easy:
     3:
     0.213,0.272,0.034,0.046,0.000,124.000,3.000,4.000,0.000,0.000:

0000
0000
0000
0000
,
0000
0000
0000
0000
,
0000
0000
0000
0000
,
0000
0000
0000
0000
,
0001
0001
1000
1000
,
0001
0001
1000
1000
,
0010
0010
0100
0100
,
0020
0000
0000
0000
,
1030
0001
1000
0001
,
1000
0001
1000
0001
,
0100
0010
0100
0010
,
0100
0010
0100
0100
,
0010
1000
0100
0010
,
0010
1000
0100
0010
,
0010
1000
0100
0010
,
0010
1000
0100
0100
,
0010
1000
0001
0000
,
0010
0000
0010
0000
,
0010
1000
0001
0000
,
0010
0000
0010
0000
,
0010
1000
0001
0000
,
0010
0000
0010
0000
,
0010
1000
0001
0000
,
0010
0000
0010
0000
,
0200
0000
0000
0300
,
0001
0000
0001
0000
,
1000
0000
1000
0000
,
0010
0000
0010
0000
,
0100
0000
0100
0000
,
0010
0000
0010
0000
,
0001
0000
0001
0000
,
0100
0000
0100
0000
,
1000
0000
1000
0000
,
1001
0000
0000
0000
,
1001
0000
0100
0100
,
0010
0000
0100
0000
,
0010
0000
0001
1000
,
0000
0100
0100
0000
,
0010
0100
0100
0000
,
0001
0000
1000
0000
,
0001
1000
0001
0000
,
0020
0000
0000
0000
,
0000
0000
0000
0000
,
0200
0000
0000
0000
,
0000
0000
0000
0330
,
0001
1000
0001
0000
,
0001
0000
0001
0000
,
1000
0001
1000
0000
,
1000
0000
1000
0000
,
0010
0000
0010
0000
,
0100
0000
0100
0000
,
0010
0010
0010
0000
,
0100
0100
0100
0000
,
0110
0000
0000
0000;
